Q&Aサイト横断検索「CUE」で検索した結果

Yahoo!知恵袋 解決済み

読み込み中・・・
EACでWAV+cueでリッピングした音源のcueシートはfoobarでドロップ&ドラッグでやるときちんとデータが出るのに(一枚のアルバムが14曲だとしたらきちんとタグもついて14曲にも表示される) なぜ、CD ManipulatorでIMG+cueでリッピングした音源のcueシートはfoobarでドロップ&ドラッグしても1曲として表示され、タグなども出ないのですか?? DEMONT Tool で 開く をしてからでないとFoobarでは14曲とかになりません。 それはEACとCD Manipulatorでは作られるCueシートがそもそも違うからなのでしょうか?? 分かる方いましたら教えてほしいです。
EACで作成したFLAC(アルバムの曲が繋がっている)+CUEが手元にあるとして 1)元のCDに戻す 2)FLACのCUEを参照して分割した後m4aにエンコード それぞれできるだけスムーズにするとしたらどんな 方法がありますか? 例えば1はFLAC+CUEをfoovar2000で分割したWAVを作って別の書き込みソフトで焼きました。またFLAC+CUEをWAV+CUEに戻すとしたらFLAC→WAVにデコードしてCUEはテキストエディタで編集し直さないといけないんですかね? 2はそのCDをiTunesにて取り込み、m4aにエンコードしました。 なんかスマートじゃないのでもっと簡単な方法があれば教えてください。 CDの焼き上げはEACだとエラーが出て焼けませんでした。
.tta .cueをばらばらのmp3にしたいのですが、 自分で調べたサイトの指示にしたがって、Tau Producerをダウンロードして、 ttaをwaveに変換したのですが、ここから先がよくわからなくて困っています。 参考にしたサイトhttp://lonelyheart.blog58.fc2.com/blog-entry-1154.html とりえあずデーモンツールをダウンロードしようと思ったんですが、lite版しかありませんでした。正規版は有償になったんでしょうか? そのlite版を使ってcueを「マウント」しようとしましたが上手くいきませんでした。もちろんサイト指示に従って、 cueの「FILE "~.wav" WAVE」は確認しました。 そもそもデーモンツールを何の目的のために使うのかがわかりません。 どなたか詳しいかた回答よろしくお願いします。
ape+cueのファイルを曲ごとにWAVに変換したいのですが、どうすればいいのでしょうか。 自分はMonkey's Audioで一つのWAVファイルにし、それをEACで分割しようとしていたのですが、EACでcueファイルを読み込むときにエラーがでて出来ません。 cueのapeとかかれているところをWAVに変えたりもしたのですが、うまくいきません。 そこで、EAC以外のソフトでapeを曲ごとに変換する方法はありませんか? できればやり方の載っているサイトも一緒に教えてくださると助かります。 よろしくお願いします。
CUE FLACファイルをオーディオファイルとして焼く CUE+FLACファイルをオーディオファイルとして戻したいのですがどんなソフト使えばいいんでしょうか? EASY MEDIA CREATER 10を所有しているので焼くソフトはあるのでflacファイルを追加しして焼く事はできたんですが、それでは再度PC上のgracenoteとかで読み込むとオーディオ情報を見つけられない状態です。おそらく曲目情報が入っていないため? flac+m3u は EASY MEDIA CREATER 10で上手くCDに戻して認識できました。 ?m3uはプレイリストファイルだと聞きましたが、cueとは別物ですか? ?deamon tool とかimgburnとかでもcueを上手く読み込まなかったので、flac+cueを上手く焼くソフトを教えてください
cueシートを作成してみたのですが、エラーになります。どこか間違ってる部分があるのでしょうか? ↓作成したcueシートの内容です。 TITLE "音楽CD" FILE "music.wav" WAVE ? TRACK 01 AUDIO ? ? TITLE "トラック1" ? ? PERFORMER "不明なアーティスト" ? ? ISRC JPE301300201 ? ? INDEX 01 00:00:00 ? ? INDEX 00 03:53:07 ? TRACK 02 AUDIO ? ? TITLE "トラック2" ? ? PERFORMER "不明なアーティスト" ? ? ISRC JPE301203961 ? ? INDEX 01 03:56:27 ? ? INDEX 00 05:27:45 ? TRACK 03 AUDIO ? ? TITLE "トラック3" ? ? PERFORMER "不明なアーティスト" ? ? ISRC JPE301300202 ? ? INDEX 01 05:30:71
CUEファイルがありますがimgburnやDeamontoolsで読み込めないファイルがあります。 しかし、foobar2000では読み込めます。 CDに焼きたいのですがどうすればImgBurnで読み込ませる事ができますか?
EACでWAV+cueでリッピングした音源のcueシートは foobarでドロップ&ドラッグでやるときちんとデータが出るのに(一枚のアルバムが14曲だとしたらきちんとタグもついて14曲にも表示される) CD ManipulatorでIMG+cueでリッピングした音源のcueシートはfoobarでドロップ&ドラッグしても1曲として表示され、タグも出ないのですか?? DEMONT Tool で 開く をしてからでないとFoobarでは14曲とかになりません。 それはEACとCD Manipulatorでは作られるCueシートがそもそも違うからなのでしょうか?? 分かる方いましたら教えてほしいです。
CUEファイルをマウス右クリックを行うと、PCがフリーズします。何故でしょうか? フリーズしないようにする方法が有るのでしょうか? 右クリックしてメモ帳で開きたいときや、削除したいときに、クリックするだけで「砂時計」が現れて、そのままになってしまいます。その状態で長くほって置いても直りません。 タスクマネージャーで、「応答していません」となっています。 「すぐに終了」をしてもなかなか終了しません---。 しつこくやればやっと終了が叶えられます・・・。 で、削除の場合はゴミ箱へドラッグすれば何事も起こらず、普通にゴミ箱に入り、”ゴミ箱を空にする”で削除できますが、右クリックでふきだし窓(?)を出して削除をしようとすると、右クリックしただけでフリーズになります。 CUEファイルはExact Audio Copyで作成したものや、DLして入手したものでもフリーズします。 OSはWindowsXPです。 解決策教えて下さい!
.cue .mp3を一曲ずつのmp3にしたいのですがどうすればよいのでしょうか。

->Yahoo!知恵袋 解決済みに移動

教えて!Goo

読み込み中・・・
CD Manipulatorで市販されている音楽CDのバックアップをとったのですが、 間違えてcueファイルを削除してしまい困っています。 imgファイルは残っていますが、cueファイルが無いのでディスク...
MD音源をPCを介してWAV(?)音源を作成しました。 1曲が60分程度あり、好きな曲を聞くのに不便なのでCUEシートを利用して分割したいのですが、CUEシートがうまく作れません・・・。 ここの「...
著作権が消滅したクラシック音楽ファイル(ape+cue)を 再生するためMonkey's Audioを全て「Next」でインストールして APEファイルをWAVEファイルに変換しました。 ファイルの中にCDImage.cue、CDImag...
東方シリーズ音楽抜き出し機から抽出した、複数あるwavファイルを1つのttaやflacなどに圧縮して、cueシートからfoobar2000に読み込めるようにしたいと考えています。 cueシートで各曲毎に再生...
Win2kのカテゴリと迷いましたが、こちらで質問させていただきます。 Adobe Creative Suite2をインストールしてます。 右下のシステムトレイにVersion Cueのアイコンが表示されていることを常々気...
cueファイルをmp3やwav等に変換したいのですが 適当な変換ソフト と "元となるwavファイル + cueシート" があれば変換できるのですか? それともなにか足りないものがあるのでしょうか...
cueファイルというやつがあると、数曲が1曲にまとまってる音楽ファイルでも曲飛ばしができると聞きましたが、cueファイルはMP3の音楽ファイルでも作れるんでしょうか?
Foobar2000のプレイリスト上でFlacファイルを曲ごとではなくアルバムごとに一枚のファイルにしてcueファイルでトラックごとに分割したいのですがうまくいきません。 まずFlacファイルとcueフ...
ape,cueをCD-Rに焼き、コンポで再生したいのですが、Nero5では焼くことが出来ませんでした。 焼く方法や、必要なソフト(フリーだと助かります)を教えて下さい。 tta,cueというファイルもある...
mp3形式の音楽ファイルを.cue形式へ変換する方法を教えてください。

->教えて!Gooに移動

はてな

読み込み中・・・
検索結果:0件

->はてなに移動


▲ページ先頭へ(再検索する)